壹高清

 找回密码
 立即注册
查看: 130|回复: 2

2019央视4K50P和普通春晚 67G/17G

[复制链接]
  • TA的每日心情

    8 小时前
  • 签到天数: 667 天

    [LV.9]以坛为家II

    251

    主题

    885

    帖子

    1万

    积分

    论坛元老

    Rank: 8Rank: 8

    积分
    14385
    发表于 2019-2-10 13:18:46 | 显示全部楼层 |阅读模式
    本帖最后由 c21 于 2019-2-10 13:30 编辑

    4K50P



    • Complete name               : CCTV4K.Spring.Festival.Gala.20190204.2160P.ts
    • Format                      : MPEG-TS
    • File size                   : 67.3 GiB
    • Duration                    : 4 h 49 min
    • Overall bit rate            : 33.3 Mb/s

    • Video
    • ID                          : 3951 (0xF6F)
    • Menu ID                     : 3950 (0xF6E)
    • Format                      : HEVC
    • Format/Info                 : High Efficiency Video Coding
    • Format profile              : Main@L5@High
    • Codec ID                    : 36
    • Duration                    : 2 h 40 min
    • Bit rate                    : 31.2 Mb/s
    • Width                       : 3 840 pixels
    • Height                      : 2 160 pixels
    • Display aspect ratio        : 16:9
    • Frame rate                  : 50.000 FPS
    • Standard                    : Component
    • Color space                 : YUV
    • Chroma subsampling          : 4:2:0 (Type 0)
    • Bit depth                   : 8 bits
    • Bits/(Pixel*Frame)          : 0.075
    • Stream size                 : 35.0 GiB (52%)
    • Color range                 : Limited
    • Color primaries             : BT.2020
    • Transfer characteristics    : HLG
    • Matrix coefficients         : BT.2020 non-constant

    • Audio
    • ID                          : 3952 (0xF70)
    • Menu ID                     : 3950 (0xF6E)
    • Format                      : AC-3
    • Format/Info                 : Audio Coding 3
    • Commercial name             : Dolby Digital
    • Codec ID                    : 6
    • Duration                    : 4 h 49 min
    • Bit rate mode               : Constant
    • Bit rate                    : 448 kb/s
    • Channel(s)                  : 6 channels
    • Channel layout              : L R C LFE Ls Rs
    • Sampling rate               : 48.0 kHz
    • Frame rate                  : 31.250 FPS (1536 SPF)
    • Bit depth                   : 16 bits
    • Compression mode            : Lossy
    • Delay relative to video     : -232 ms
    • Stream size                 : 928 MiB (1%)
    • Service kind                : Complete Main

    • Menu
    • ID                          : 3950 (0xF6E)
    • Menu ID                     : 3950 (0xF6E)
    • List                        : 3951 (0xF6F) (HEVC) / 3952 (0xF70) (AC-3)

    普通版







    本帖子中包含更多资源

    您需要 登录 才可以下载或查看,没有帐号?立即注册

    x
    我们并没有生活在和平的年代,但我们有幸生在一个和平的国家。
    回复

    使用道具 举报

  • TA的每日心情
    开心
    2019-2-17 18:01
  • 签到天数: 239 天

    [LV.7]常住居民III

    8

    主题

    58

    帖子

    3935

    积分

    论坛元老

    Rank: 8Rank: 8

    积分
    3935
    发表于 2019-2-16 19:09:18 | 显示全部楼层
    牛了,这个值得收藏,CCTV4K是不是付费频道?广电高清机顶盒也收不到这个频道啊
    回复

    使用道具 举报

  • TA的每日心情

    8 小时前
  • 签到天数: 667 天

    [LV.9]以坛为家II

    251

    主题

    885

    帖子

    1万

    积分

    论坛元老

    Rank: 8Rank: 8

    积分
    14385
     楼主| 发表于 2019-2-17 15:37:18 | 显示全部楼层
    异小云 发表于 2019-2-16 19:09
    牛了,这个值得收藏,CCTV4K是不是付费频道?广电高清机顶盒也收不到这个频道啊

    只有几个地区能收到
    我们并没有生活在和平的年代,但我们有幸生在一个和平的国家。
    回复

    使用道具 举报

    您需要登录后才可以回帖 登录 | 立即注册

    本版积分规则

    手机版|OneHD  

    GMT+8, 2019-4-22 14:39 , Processed in 0.223804 second(s), 22 queries .

    Powered by Discuz! X3.2

    © 2001-2013 Comsenz Inc.

    快速回复 返回顶部 返回列表